#TITLE:she is my sin;
#SUBTITLE:;
#ARTIST:nightwish;
#TITLETRANSLIT:;
#SUBTITLETRANSLIT:;
#ARTISTTRANSLIT:;
#CREDIT:;
#BANNER:She Is My Sin-logo.jpg;
#BACKGROUND:SHE IS BY SIN.jpg;
#LYRICSPATH:;
#CDTITLE:DD.png;
#MUSIC:she is my sin.mp3;
#OFFSET:-0.020;
#SAMPLESTART:100.000;
#SAMPLELENGTH:12.000;
#SELECTABLE:YES;
#BPMS:0.000=153.070;
#STOPS:;
#BGCHANGES:;
// cache tags:
#FIRSTBEAT:0.000;
#LASTBEAT:376.500;
#SONGFILENAME:Songs/SDO pack 4/she is my sin/she is my sin.sm;
#HASMUSIC:1;
#HASBANNER:1;
#MUSICLENGTH:153.518;
// end cache tags

//---------------dance-single - Hener----------------
#NOTES:
     dance-single:
     Hener:
     Hard:
     10:
     0.986,1.000,1.000,0.052,0.391,730.000,300.000,8.000,0.000,22.000:

1001
1001
1001
0010
0100
0010
0001
0010
,
0100
1000
0100
0010
0001
1010
0000
0101
,
0101
0101
0101
1000
0010
0100
1000
0100
,
0010
0000
0001
0000
0010
0000
0100
0000
0010
0000
1001
0000
0000
0100
0000
0000
,
1001
1001
1001
0100
0010
0001
1010
0000
,
1010
0101
0101
0011
,
1100
1100
1100
1100
0011
0011
0011
0011
,
1101
0000
1101
0000
1101
0000
1101
0000
0100
0010
1000
0100
1001
0000
0000
0000
,
0101
0010
1001
0010
0101
1000
0110
0001
,
1010
0000
0100
0010
0001
0010
0100
0000
1000
0010
0000
0100
0001
0000
0010
0100
,
1001
0001
1010
0100
0011
1000
0101
0010
,
0100
1000
0100
0010
0001
0000
0100
0010
0001
0010
0100
0000
1000
0100
0010
0001
,
1010
0100
0101
0010
1010
0000
1001
0000
,
1010
0011
1001
0101
,
1001
1001
1001
1001
1101
1101
1101
1101
,
0010
0100
1000
0100
0010
0001
0010
0100
1000
0100
0010
0001
1010
0000
0000
0000
,
1011
0000
0100
0010
0101
0000
0010
0000
1001
0000
0010
0100
1001
0000
0010
0000
,
1001
0000
0010
0100
1010
0000
0100
0000
0011
0000
0001
0010
0101
0000
0010
0000
,
1001
0000
0010
0100
1010
0000
0100
0000
0011
0000
1000
0100
0011
0000
0100
0000
,
1010
0000
0001
0010
0101
0000
1000
0000
0101
0000
1000
0100
1010
0000
0100
0000
,
1011
0000
0100
0000
0010
0000
0100
0010
0001
0000
0000
0000
1010
0000
0000
0000
,
0101
1001
1100
0011
,
0110
0110
0110
0110
1001
1001
1001
1001
,
1000
0100
0010
0001
0010
0100
1000
0100
0010
0001
0100
0010
0001
0010
0100
1000
,
0101
0000
0000
0100
0001
0000
0100
0000
0101
0000
0000
0100
0001
0000
0100
0000
,
1010
0000
0000
0010
1000
0000
0010
0000
1010
0000
0000
0010
1000
0000
0010
0000
,
1001
0000
0000
1000
0001
0000
1000
0000
1001
0000
0000
1000
0001
0000
1000
0000
,
0110
0000
0000
0010
0100
0000
0010
0000
0110
0000
0000
0010
0100
0000
0010
0000
,
1001
0100
0011
1000
0101
0010
1100
0001
,
1010
0100
0011
1000
0101
0010
1001
0101
,
1010
0000
0000
1000
0010
0000
1000
0000
1010
0000
0000
1000
0010
0000
1000
0000
,
0101
0000
0000
0001
0100
0000
0001
0000
0101
0000
0000
0001
0100
0000
0001
0000
,
0110
0000
0000
0010
0100
0000
0010
0000
0110
0000
0000
0010
0100
0000
0010
0000
,
1001
0000
0000
1000
0001
0000
1000
0000
1001
0000
0100
0010
0001
0000
1010
0000
,
0101
0000
0010
0000
1000
0000
0100
0010
0001
0000
0000
0000
1010
0000
0000
0000
,
0011
1100
0101
1001
,
2110
0000
0010
0000
0100
0000
0000
0000
0000
0000
0010
0000
0100
0010
0000
0000
,
0010
0000
0010
0000
0100
0000
0000
0000
0000
0000
0010
0000
0100
0010
0000
3000
,
0112
0000
0010
0000
0100
0000
0000
0000
0000
0000
0010
0000
0100
0010
0000
0000
,
0010
0000
0010
0000
0100
0000
0000
0000
0000
0000
0010
0000
0100
0010
0000
0003
,
0201
0000
0001
0000
0010
0000
0000
0000
0000
0000
0001
0000
0010
0001
0000
0000
,
0001
0000
0001
0000
0010
0000
0000
0000
0000
0000
0001
0000
0010
0001
0000
0300
,
1001
1001
0110
1001
1001
1001
0110
1001
,
1001
0000
0000
0000
0000
0000
0000
0000
0200
0000
0000
0000
0000
0000
0000
0300
,
1001
0000
1000
0100
0011
0000
1000
0100
0011
0000
1000
0100
0011
0000
1000
0100
,
0011
0000
0001
0010
1100
0000
0001
0010
1100
0000
0001
0010
1100
0000
0001
0010
,
1100
0000
0100
1000
0011
0000
0100
1000
0011
0000
0100
1000
0011
0000
0000
0000
,
0010
0001
0010
0100
1000
0100
0010
0001
0010
0100
0010
0100
1001
0000
0001
0000
,
1010
0100
0011
1000
0101
0010
1001
0100
,
1010
0100
1001
0010
0101
1000
0110
0001
,
1010
0100
1001
0010
0101
0010
1001
0100
,
1010
0000
0000
0001
0000
0000
1000
0000
0120
0000
0000
0000
0001
0000
0000
0030
,
1001
0100
1010
0100
0011
1000
0110
0001
,
1010
0100
1001
0010
0101
0010
1001
0100
,
0011
0100
1010
0100
1001
0010
1100
0001
,
1010
0100
1010
1010
0101
0101
1100
0011
,
1001
0000
1000
0100
0011
0000
1000
0100
0011
0000
1000
0100
0011
0000
1000
0100
,
0011
0000
0001
0010
1100
0000
0001
0010
1100
0000
0001
0010
1100
0000
0001
0010
,
1100
0000
0010
0100
1001
0000
0101
0000
0010
0000
0010
0100
1001
0000
0100
0010
,
0101
0000
1000
0100
1010
0000
1000
0100
1010
0000
1000
0100
1010
0000
1000
0100
,
1010
0000
1000
0100
0011
0000
1000
0100
0011
0000
1000
0100
0011
0000
1000
0100
,
0011
0000
0001
0010
1100
0000
0001
0010
1100
0000
0001
0010
1100
0000
0001
0010
,
1100
0000
0100
0010
1001
0000
0011
0100
1000
0000
0100
0010
0101
0000
0010
0000
,
0100
1000
0100
0010
0001
0010
0100
1000
0001
0010
0100
1000
0011
0000
0000
0000
,
0100
0010
0101
0000
0000
1011
0000
0000
0000
0000
0010
0000
0101
0000
0000
0000
,
0000
0101
0010
1010
0100
1010
1010
1001
,
0222
0000
0000
0000
,
0000
0000
0000
0000
,
0000
0000
0000
0000
,
0000
0000
0000
0333
,
0000
0000
0000
0000
,
0000
0000
0000
0000
,
0000
0000
0000
0000
,
0000
0110
0110
0110
,
1010
0100
0101
0010
1010
0100
0101
0010
,
1001
0100
1001
0010
1001
0100
1001
0010
,
1010
0100
1010
0001
1010
0100
1010
0001
,
0101
0010
0101
1000
0101
0010
0101
1000
,
0110
0001
0110
1000
0110
0001
0110
1000
,
0101
0010
1010
0100
0101
0010
1010
0100
,
1001
0100
1001
0010
1001
0100
1001
0010
,
1100
0001
1100
0010
1100
0001
1100
0010
,
0011
1000
0011
0100
0011
1000
0011
0100
,
1010
0100
1010
0001
1010
0100
1010
0001
,
0101
0010
0101
1000
0101
0010
0101
1000
,
0110
0001
0110
1000
0110
0001
0110
1001
,
1010
0100
0101
0010
1010
0100
0101
0010
,
1001
0100
1001
0010
1001
0100
1001
0010
,
1100
0001
1100
0010
1100
0001
1100
0010
,
0101
0010
0101
0010
0101
0010
0101
0010
,
1101
0000
0001
0010
1100
0000
0001
0010
1100
0000
0001
0010
1100
0000
0001
0010
,
1100
0000
1100
0010
0001
0000
1100
0010
0001
0000
1100
0010
0001
0000
1100
0010
,
0001
1010
1010
0001
0100
0010
1101
0000
,
1011
1110
0111
1011
,
1101
1011
0000
0000
0000
0000
0000
0000
;
